Ивановский Торрент трекер
Яндекс.Погода
 

[Quote]
HUNTER

Клаустрофобы / Escape Room«Игры кончились»- Страна: США, ЮАР
Студии: Sony, Original Film
Жанр: Триллер
Год выпуска: 2019-Дата мировой премьеры: 3 января 2019
Дата российской премьеры: 7 февраля 2019, «WDSSPR»-Продолжительность: 01:35:33
Перевод: Профессиональный (дублированный) [Лицензия]
Субтитры: Английские, датские, эстонские, финские, итальянские, латышские, литовские, норвежские, русские, шведские, украинские
Оригинальная аудиодорожка: английская-Режиссер: Адам Робител / Adam Robitel
Продюсеры: Ори Мармур, Нил Х. Мориц, Karina Rahardja
Актеры: Тейлор Расселл, Логан Миллер, Джей Эллис, Тайлер Лабин, Дебора Энн Уолл, Ник Додани, Йорик ван Вагенинген, Корнелиус Джини мл., Рассел Кроус, Барт Фаш-Описание:
Получив приглашение сыграть в квест, победитель которого получит денежное вознаграждение, шестеро прежде незнакомых между собой людей решают испытать удачу. Но вскоре становится очевидно, что их выбрали для игры не случайно, задания не такие безобидные, участникам грозит вполне реальная опасность, а ставка в игре – их собственные жизни.
Доп. материалы: Игра, наборы, матч, Одинокие выжившие, Удалённые сцены, Будешь ли ты когда-нибудь, Трейлеры (без перевода)- -Качество: DVD9 R2
Формат: DVD-Video
Видео: MPEG-2, [email protected] (PAL 16:9), ~5100 Кбит/сек
Аудио 1: AC3 5.1, 384 Кбит/сек [Английский - оригинал]
Аудио 2: AC3 2.0, 192 Кбит/сек [Английский - комментарии]
Аудио 3: AC3 5.1, 384 Кбит/сек [Итальянский - дублированный]
Аудио 4: AC3 5.1, 384 Кбит/сек [Русский - дублированный]
Аудио 5: AC3 5.1, 384 Кбит/сек [Украинский - дублированный]

DVDInfo

Title: Escape Room (2019) DVD9 R2
Size: 7.52 Gb ( 7 890 302,00 KBytes ) - DVD-9
Enabled regions: 1, 2, 3, 4, 5, 6, 7, 8
VTS_01 :
Play Length: 01:35:33
Video: PAL 16:9 (720x576) VBR, Auto Letterboxed
Audio:
English, AC3, 3/2 (L,C,R,SL,SR)+LFE ch, 384 kbps, Delay 0 mSec
English, AC3, 2/0 (L,R) ch, 192 kbps, Delay 0 mSec
Italiano, AC3, 3/2 (L,C,R,SL,SR)+LFE ch, 384 kbps, Delay 0 mSec
Russian, AC3, 3/2 (L,C,R,SL,SR)+LFE ch, 384 kbps, Delay 0 mSec
Ukrainian, AC3, 3/2 (L,C,R,SL,SR)+LFE ch, 384 kbps, Delay 0 mSec
Subtitles:
English
English
Dansk
Estonian
Suomi
Italiano
Latvian
Lithuanian
Norsk
Russian
Svenska
Ukrainian
VTS_02 :
Play Length: 00:00:00+00:00:00
Video: PAL 16:9 (720x576) VBR, Auto Letterboxed
VTS_03 :
Play Length: 00:04:44+00:04:09+00:00:00+00:00:00+00:00:00
Video: PAL 16:9 (720x576) VBR, Auto Letterboxed
Audio:
English (Dolby AC3, 2 ch)
Subtitles:
English
Italiano
VTS_04 :
Play Length: 00:18:19+00:05:08+00:01:30+00:00:48+00:02:08+00:00:43+00:02:31+00:03:52+00:02:25
Video: PAL 16:9 (720x576) VBR, Auto Letterboxed
Audio:
English (Dolby AC3, 2 ch)
Subtitles:
English
Italiano
VTS_05 :
Play Length: 00:01:54+00:01:01+00:01:00+00:00:00+00:00:00
Video: PAL 16:9 (720x576) VBR, Auto Letterboxed
Audio:
English (Dolby AC3, 2 ch)
Subtitles:
English
Italiano
VTS_06 :
Play Length: 00:29:06
Video: PAL 16:9 (720x576) VBR, Auto Letterboxed
Audio:
English (Dolby AC3, 2 ch)
Subtitles:
English
Italiano
VTS_07 :
Play Length: 00:00:00+00:00:00
Video: PAL 16:9 (720x576) VBR, Auto Pan&Scan
VTS_08 :
Play Length: 00:02:25+00:02:25
Video: PAL 16:9 (720x576) VBR, Auto Letterboxed
Audio:
English (Dolby AC3, 6 ch)
Subtitles:
Italiano
VTS_09 :
Play Length: 00:00:00+00:00:00
Video: PAL 16:9 (720x576) VBR, Auto Letterboxed
VTS_10 :
Play Length: 00:00:00+00:00:00
Video: PAL 16:9 (720x576) VBR, Auto Letterboxed
VTS_11 :
Play Length: 00:00:00+00:00:00+00:00:00+00:00:00
Video: PAL 16:9 (720x576) VBR, Auto Letterboxed
VTS_12 :
Play Length: 00:00:14
Video: PAL 16:9 (720x576) VBR, Auto Pan&Scan
Audio:
Not specified (Dolby AC3, 6 ch)
VTS_13 :
Play Length: 00:00:10+00:00:37
Video: PAL 16:9 (720x576) VBR, Auto Letterboxed
Audio:
English (Dolby AC3, 2 ch)
VTS_14 :
Play Length: 00:00:05+00:00:00+00:00:10+{00:00:00}+{00:00:00}+{00:00:00}+{00:00:00}+00:00:00+00:00:00+00:00:05+00:00:05+00:00:05+00:00:05+00:00:05+00:00:05+00:00:05+00:00:48+00:00:05+00:00:10+00:00:48+00:00:05+00:00:05+00:00:05+00:00:05+00:00:05+00:00:05+00:00:05+00:00:05+00:00:05+00:00:05+00:00:05+00:00:05+00:00:05+00:00:05+00:00:05+00:00:05+00:00:05+00:00:05+00:00:00
Video: PAL 16:9 (720x576) VBR, Auto Letterboxed
Audio:
Not specified (Dolby AC3, 2 ch)
VTS_15 :
Play Length: 00:00:00+00:00:05+00:00:05+00:00:05+00:00:05+00:00:05+00:00:05+00:00:05+00:00:05+00:00:05+00:00:05+00:00:05+00:00:05+00:00:05+00:00:05+00:00:05+00:00:05+00:00:05+00:00:05+00:00:05+00:00:05+00:00:05+00:00:05+00:00:05+00:00:05+00:00:05+00:00:05+00:00:05+00:00:00
Video: PAL 16:9 (720x576) VBR, Auto Letterboxed
Audio:
Not specified (Dolby AC3, 2 ch)

MediaInfo

Общее
Полное имя : Y:\Torrents\Escape Room (2019) DVD9 R2\VIDEO_TS\VTS_01_3.VOB
Формат : MPEG-PS
Размер файла : 1 024 Мбайт
Продолжительность : 20 м. 23 с.
Режим общего битрейта : Переменный
Общий поток : 7 017 Кбит/сек
Видео
Идентификатор : 224 (0xE0)
Формат : MPEG Video
Версия формата : Version 2
Профиль формата : [email protected]
Настройки формата : CustomMatrix / BVOP
Параметр BVOP формата : Да
Параметр матрицы формата : Выборочная
Параметр GOP формата : Variable
Продолжительность : 20 м. 23 с.
Вид битрейта : Переменный
Битрейт : 5 150 Кбит/сек
Максимальный битрейт : 6 900 Кбит/сек
Ширина : 720 пикселей
Высота : 576 пикселей
Соотношение сторон : 16:9
Частота кадров : 25,000 кадров/сек
Стандарт вещания : PAL
Цветовое пространство : YUV
Субдискретизация насыщенности : 4:2:0
Битовая глубина : 8 бит
Тип развёртки : Прогрессивная
Порядок развёртки : Нижнее поле первое
Метод сжатия : С потерями
Бит/(Пиксели*Кадры) : 0.497
Временной код первого кадра : 01:42:20:01
Оригинал временного кода : Group of pictures header
Размер потока : 751 Мбайт (73%)
Аудио #1
Идентификатор : 189 (0xBD)-128 (0x80)
Формат : AC-3
Формат/Информация : Audio Coding 3
Коммерческое название : Dolby Digital
Режим смешивания : DVD-Video
Продолжительность : 20 м. 23 с.
Вид битрейта : Постоянный
Битрейт : 384 Кбит/сек
Каналы : 6 каналов
Channel layout : L R C LFE Ls Rs
Частота : 48,0 КГц
Частота кадров : 31,250 кадров/сек (1536 SPF)
Метод сжатия : С потерями
Задержка видео : -256 мс.
Размер потока : 56,0 Мбайт (5%)
Service kind : Complete Main
Аудио #2
Идентификатор : 189 (0xBD)-129 (0x81)
Формат : AC-3
Формат/Информация : Audio Coding 3
Коммерческое название : Dolby Digital
Режим смешивания : DVD-Video
Продолжительность : 20 м. 23 с.
Вид битрейта : Постоянный
Битрейт : 192 Кбит/сек
Каналы : 2 канала
Channel layout : L R
Частота : 48,0 КГц
Частота кадров : 31,250 кадров/сек (1536 SPF)
Метод сжатия : С потерями
Задержка видео : -224 мс.
Размер потока : 28,0 Мбайт (3%)
Service kind : Complete Main
Аудио #3
Идентификатор : 189 (0xBD)-130 (0x82)
Формат : AC-3
Формат/Информация : Audio Coding 3
Коммерческое название : Dolby Digital
Режим смешивания : DVD-Video
Продолжительность : 20 м. 23 с.
Вид битрейта : Постоянный
Битрейт : 384 Кбит/сек
Каналы : 6 каналов
Channel layout : L R C LFE Ls Rs
Частота : 48,0 КГц
Частота кадров : 31,250 кадров/сек (1536 SPF)
Метод сжатия : С потерями
Задержка видео : -256 мс.
Размер потока : 56,0 Мбайт (5%)
Service kind : Complete Main
Аудио #4
Идентификатор : 189 (0xBD)-131 (0x83)
Формат : AC-3
Формат/Информация : Audio Coding 3
Коммерческое название : Dolby Digital
Режим смешивания : DVD-Video
Продолжительность : 20 м. 23 с.
Вид битрейта : Постоянный
Битрейт : 384 Кбит/сек
Каналы : 6 каналов
Channel layout : L R C LFE Ls Rs
Частота : 48,0 КГц
Частота кадров : 31,250 кадров/сек (1536 SPF)
Метод сжатия : С потерями
Задержка видео : -256 мс.
Размер потока : 56,0 Мбайт (5%)
Service kind : Complete Main
Аудио #5
Идентификатор : 189 (0xBD)-132 (0x84)
Формат : AC-3
Формат/Информация : Audio Coding 3
Коммерческое название : Dolby Digital
Режим смешивания : DVD-Video
Продолжительность : 20 м. 23 с.
Вид битрейта : Постоянный
Битрейт : 384 Кбит/сек
Каналы : 6 каналов
Channel layout : L R C LFE Ls Rs
Частота : 48,0 КГц
Частота кадров : 31,250 кадров/сек (1536 SPF)
Метод сжатия : С потерями
Задержка видео : -256 мс.
Размер потока : 56,0 Мбайт (5%)
Service kind : Complete Main
Текст #1
Идентификатор : 189 (0xBD)-32 (0x20)
Формат : RLE
Формат/Информация : Run-length encoding
Режим смешивания : DVD-Video
Задержка видео : 1 с. 320 мс.
Текст #2
Идентификатор : 189 (0xBD)-33 (0x21)
Формат : RLE
Формат/Информация : Run-length encoding
Режим смешивания : DVD-Video
Задержка видео : 1 с. 320 мс.
Текст #3
Идентификатор : 189 (0xBD)-34 (0x22)
Формат : RLE
Формат/Информация : Run-length encoding
Режим смешивания : DVD-Video
Задержка видео : 1 с. 320 мс.
Текст #4
Идентификатор : 189 (0xBD)-35 (0x23)
Формат : RLE
Формат/Информация : Run-length encoding
Режим смешивания : DVD-Video
Задержка видео : 1 с. 240 мс.
Текст #5
Идентификатор : 189 (0xBD)-36 (0x24)
Формат : RLE
Формат/Информация : Run-length encoding
Режим смешивания : DVD-Video
Задержка видео : 1 с. 320 мс.
Текст #6
Идентификатор : 189 (0xBD)-37 (0x25)
Формат : RLE
Формат/Информация : Run-length encoding
Режим смешивания : DVD-Video
Задержка видео : 1 с. 320 мс.
Текст #7
Идентификатор : 189 (0xBD)-38 (0x26)
Формат : RLE
Формат/Информация : Run-length encoding
Режим смешивания : DVD-Video
Задержка видео : 1 с. 240 мс.
Текст #8
Идентификатор : 189 (0xBD)-39 (0x27)
Формат : RLE
Формат/Информация : Run-length encoding
Режим смешивания : DVD-Video
Задержка видео : 1 с. 320 мс.
Текст #9
Идентификатор : 189 (0xBD)-40 (0x28)
Формат : RLE
Формат/Информация : Run-length encoding
Режим смешивания : DVD-Video
Задержка видео : 1 с. 320 мс.
Текст #10
Идентификатор : 189 (0xBD)-41 (0x29)
Формат : RLE
Формат/Информация : Run-length encoding
Режим смешивания : DVD-Video
Задержка видео : 1 с. 320 мс.
Текст #11
Идентификатор : 189 (0xBD)-42 (0x2A)
Формат : RLE
Формат/Информация : Run-length encoding
Режим смешивания : DVD-Video
Задержка видео : 1 с. 200 мс.
Текст #12
Идентификатор : 189 (0xBD)-43 (0x2B)
Формат : RLE
Формат/Информация : Run-length encoding
Режим смешивания : DVD-Video
Задержка видео : 1 с. 320 мс.
Меню
-

Скриншоты меню

Скриншоты доп. материалов

Скриншоты фильма

-Раздаю с 15:00 до 23:00 до 10 скачавших.


Display posts:    

Current time is: 23-Oct 07:40

All times are UTC ± 0


You cannot post new topics in this forum
You cannot reply to topics in this forum
You cannot edit your posts in this forum
You cannot delete your posts in this forum
You cannot vote in polls in this forum
You cannot attach files in this forum
You cannot download files in this forum

!ATTENTION!
The site does not give electronic versions of products, and is engaged only in a collecting and cataloguing of the references sent and published at a forum by our readers. If you are the legal owner of any submitted material and do not wish that the reference to it was in our catalogue, contact us and we shall immediately remove her. Files for an exchange on tracker are given by users of a site, and the administration does not bear the responsibility for their maintenance. The request to not fill in the files protected by copyrights, and also files of the illegal maintenance!