Ивановский Торрент трекер
Яндекс.Погода
 

[Quote]
HUNTER

ИП Пирогова- Год выпуска: 2019
Производство: Yellow, Black and White
Жанр: комедия
Продолжительность: 13 x ~ 00:24:00
Субтитры: Нет-КиноПоискКино-ТеатрMyShowsIMDb-Режиссёр: Антон Маслов
В ролях: Елена Подкаминская, Данила Дунаев, Александр Панкратов-Чёрный, Александр Константинов, Ксения Теплова, Василина Юсковец, Елена Валюшкина, Виктория Заболотная, Анастасия Савосина, Ольга Балль, Валерия Дергилёва, Сергей Соцердотский, Баин Бовальдинов, Дмитрий Лысенков, Наталья Суркова, Евгений Харитонов, Стас Румянцев-Описание: Освоив азы индивидуального предпринимательства, Вера Пирогова продолжает строить свой кондитерский бизнес. С маленькой домашней кухни она перебирается в собственное кафе-пекарню и, кажется, теперь до осуществления заветной мечты осталось совсем чуть-чуть. Однако двери кондитерской не успевают открыться, как Вере вновь приходится решать одну проблему за другой. Впрочем, шумная семья начинающей бизнес-леди всегда готова прийти на помощь. Как и Андрей – первая любовь Веры, который намерен заново покорить сердце предприимчивого кондитера. Это будет непросто, ведь Андрею придется конкурировать за внимание Веры не только с ее бизнесом, но и с мужем Димой, вернувшимся домой из СИЗО. Решится ли Вера дать второй шанс кому-то из мужчин?-Релиз: karvai
Реклама: Нет
Доп. информация: Источник START (присутствует логотип видеосервиса)
Скачать сэмплВсе раздачи сериала-Качество: WEBRip 2160p
Формат: MKV
Видео кодек: H.264
Аудио кодек: AAC
Видео: MPEG-4 (AVC), 3840х2160 (16:9), 25 fps, ~ 28.0 Mbps, 0.135 bit/pixel
Аудио: AAC, 48.0 kHz, 2 ch, 256 Kbps-

MediaInfo

General
Unique ID : 137641838440945528486224142125061842526 (0x678CDA944D0A31A952CC5383C25B265E)
Complete name : ИП Пирогова (2019) - 2 Сезон - WEB-DL 2160p/ИП Пирогова - S2E01 - WEB-DL 2160p.mkv
Format : Matroska
Format version : Version 4
File size : 4.71 GiB
Duration : 24mn 9s
Overall bit rate : 27.9 Mbps
Encoded date : UTC 2020-08-15 23:46:25
Writing application : mkvmerge v48.0.0 ('Fortress Around Your Heart') 64-bit
Writing library : libebml v1.4.0 + libmatroska v1.6.0
Video
ID : 1
Format : AVC
Format/Info : Advanced Video Codec
Format profile : [email protected]
Format settings : CABAC / 4 Ref Frames
Format settings, CABAC : Yes
Format settings, ReFrames : 4 frames
Codec ID : V_MPEG4/ISO/AVC
Duration : 24mn 9s
Bit rate : 28.0 Mbps
Width : 3 840 pixels
Height : 2 160 pixels
Display aspect ratio : 16:9
Frame rate mode : Constant
Frame rate : 25.000 fps
Color space : YUV
Chroma subsampling : 4:2:0
Bit depth : 8 bits
Scan type : Progressive
Bits/(Pixel*Frame) : 0.135
Stream size : 4.66 GiB (99%)
Writing library : x264 core 152
Encoding settings : cabac=1 / ref=2 / deblock=1:0:0 / analyse=0x3:0x113 / me=hex / subme=6 / psy=1 / psy_rd=1.00:0.00 / mixed_ref=1 / me_range=16 / chroma_me=1 / trellis=1 / 8x8dct=1 / cqm=0 / deadzone=21,11 / fast_pskip=1 / chroma_qp_offset=-2 / threads=12 / lookahead_threads=2 / sliced_threads=0 / nr=0 / decimate=1 / interlaced=0 / bluray_compat=0 / constrained_intra=0 / bframes=3 / b_pyramid=2 / b_adapt=1 / b_bias=0 / direct=1 / weightb=1 / open_gop=0 / weightp=1 / keyint=120 / keyint_min=24 / scenecut=40 / intra_refresh=0 / rc_lookahead=30 / rc=abr / mbtree=1 / bitrate=28000 / ratetol=1.0 / qcomp=0.60 / qpmin=0 / qpmax=69 / qpstep=4 / vbv_maxrate=33600 / vbv_bufsize=67200 / nal_hrd=none / filler=0 / ip_ratio=1.40 / aq=1:1.00
Default : Yes
Forced : No
Color range : Limited
Color primaries : BT.709
Transfer characteristics : BT.709
Matrix coefficients : BT.709
Audio
ID : 2
Format : AAC LC
Format/Info : Advanced Audio Codec Low Complexity
Codec ID : A_AAC-2
Duration : 24mn 9s
Bit rate : 257 Kbps
Channel(s) : 2 channels
Channel layout : L R
Sampling rate : 48.0 KHz
Frame rate : 46.875 fps (1024 SPF)
Compression mode : Lossy
Delay relative to video : -80ms
Stream size : 44.4 MiB (1%)
Default : Yes
Forced : No

Скриншоты

Сравнение

Сравнение с этой раздачей: https://screenshotcomparison.com/comparison/5449/picture:1
Доказательство того что это 4К.


Display posts:    

Current time is: 25-Sep 14:26

All times are UTC ± 0


You cannot post new topics in this forum
You cannot reply to topics in this forum
You cannot edit your posts in this forum
You cannot delete your posts in this forum
You cannot vote in polls in this forum
You cannot attach files in this forum
You cannot download files in this forum

!ATTENTION!
The site does not give electronic versions of products, and is engaged only in a collecting and cataloguing of the references sent and published at a forum by our readers. If you are the legal owner of any submitted material and do not wish that the reference to it was in our catalogue, contact us and we shall immediately remove her. Files for an exchange on tracker are given by users of a site, and the administration does not bear the responsibility for their maintenance. The request to not fill in the files protected by copyrights, and also files of the illegal maintenance!