Ивановский Торрент трекер
Яндекс.Погода
 

[Quote]
HUNTER

-Иеремия / Jeremiah-The Complete Series
Год выпуска: 3 марта 2002 – 24 сентября 2004
Страна: США, Канада
Жанр: фантастика, боевик, драма
Продолжительность: первая серия - час 30 минут, остальные 44 минут
Режиссёры: Майкл Виджер, Мартин Вуд, Нилл Фернли / Michael Vejar, Martin Wood-В ролях: Люк Перри, Мальколм-Джамал Уорнер, Питер Стеббингс, Ингрид Кавелаарс, Байрон Лоусон, Шон Эстин, Роберт Уизден, Джоэнн Келли, Кимберли Хоторн,
Кэндис МакКлюр-Описание:
Будущее. Прошло 15 лет после «Большой смерти», эпидемии унесшей жизни всего взрослого населения планеты. Единственные, кого пощадила страшная болезнь – это дети не достигшие пубертатного возраста. Иеремия – один из многих, кто похоронил своих родителей и научился выживать в беспощадном, практически средневековом мире, где выживает сильнейший.
-- -Аудиодорожка 01: AC3 | 48khz | 2ch | 192kb/s Любительский (одноголосый закадровый) MaxMeister
Аудиодорожка 02: AC3 | 48khz | 2ch | 192kb/s Оригинал (english)
Разбивка на главы : есть
Субтитры : английские (первый сезон)
Реклама : вырезана-Качество: DVD-Remux
Формат: MKV
Видео: MPEG-2 Video | NTSC | 720x480 | 4:3 | 29,970 fps | 5131 Kbps-

Релиз

Перевод: Secret Hero
Озвучка: MaxMeister

Наличие серий в раздаче

Сезон 1
S01E01-E02. The Long Road
S01E03. Man Of Iron, Woman Under Glass
S01E04. ...And the Ground, Sown With Salt
S01E05. To Sail Beyond The Stars
S01E06. The Bag
S01E07. City Of Roses
S01E08. Firewall
S01E09. The Red Kiss
S01E10. Journeys End In Lovers Meeting
S01E11. Thieves' Honor
S01E12. The Touch
S01E13. Mother Of Invention
S01E14. Tripwire
S01E15. Ring Of Truth
S01E16. Moon In Gemini
S01E17. Out Of The Ashes
S01E18. A Means To An End
S01E19. Things Left Unsaid. Part 1
S01E20. Things Left Unsaid. Part 2
Сезон 2
S02E01. Letters From The Other Side. Part 1
S02E02. Letters From The Other Side. Part 2
S02E03. Strange Attractors
S02E04. Deus Ex Machina
S02E05. Rites Of Passage
S02E06. The Mysterious Mister Smith
S02E07. Voices In The Dark
S02E08. Crossing Jordan
S02E09. Running On Empty
S02E10. The Question
S02E11. The Past Is Prologue
S02E12. The Face In The Mirror
S02E13. State Of The Union
S02E14. Interregnum. Part 1
S02E15. Interregnum. Part 2

Media info

Общее
Уникальный идентификатор : 288124703637367690832624260212003511090 (0xD8C2CCA872515E1451AD39E1DF211B32)
Полное имя : E:\Ремуксы сериалов\Jeremiah (2002-2004) DVD-Remux\Season 1\S01E03. Man Of Iron, Woman Under Glass.mkv
Формат : Matroska
Версия формата : Version 4
Размер файла : 1,71 Гбайт
Продолжительность : 44 м. 14 с.
Режим общего битрейта : Переменный
Общий поток : 5 518 Кбит/сек
Дата кодирования : UTC 2020-10-10 09:47:10
Программа кодирования : mkvmerge v51.0.0 ('I Wish') 64-bit
Библиотека кодирования : libebml v1.4.0 + libmatroska v1.6.2
Видео
Идентификатор : 1
ID in the original source medium : 224 (0xE0)
Формат : MPEG Video
Версия формата : Version 2
Профиль формата : [email protected]
Настройки формата : CustomMatrix / BVOP
Параметр BVOP формата : Да
Параметр матрицы формата : Выборочная
Параметр GOP формата : M=3, N=15
Структура изображения : Frame
Идентификатор кодека : V_MPEG2
Идентификатор кодека/Информация : MPEG 1 or 2 Video
Продолжительность : 44 м. 14 с.
Вид битрейта : Переменный
Битрейт : 5 131 Кбит/сек
Максимальный битрейт : 9 802 Кбит/сек
Ширина : 720 пикселей
Высота : 480 пикселей
Соотношение сторон : 4:3
Режим частоты кадров : Постоянный
Частота кадров : 29,970 (30000/1001) кадров/сек
Стандарт вещания : NTSC
Цветовое пространство : YUV
Субдискретизация насыщенности : 4:2:0
Битовая глубина : 8 бит
Тип развёртки : Чересстрочная
Порядок развёртки : Верхнее поле первое
Метод сжатия : С потерями
Бит/(Пиксели*Кадры) : 0.495
Размер потока : 1,59 Гбайт (93%)
Язык : English
Default : Нет
Forced : Нет
Носитель оригинала : DVD-Video
Аудио #1
Идентификатор : 2
Формат : AC-3
Формат/Информация : Audio Coding 3
Коммерческое название : Dolby Digital
Идентификатор кодека : A_AC3
Продолжительность : 44 м. 14 с.
Вид битрейта : Постоянный
Битрейт : 192 Кбит/сек
Каналы : 2 канала
Channel layout : L R
Частота : 48,0 КГц
Частота кадров : 31,250 кадров/сек (1536 SPF)
Метод сжатия : С потерями
Размер потока : 60,8 Мбайт (3%)
Заголовок : VO (MaxMeister)
Язык : Russian
Service kind : Complete Main
Default : Да
Forced : Нет
Аудио #2
Идентификатор : 3
ID in the original source medium : 189 (0xBD)128 (0x80)
Формат : AC-3
Формат/Информация : Audio Coding 3
Коммерческое название : Dolby Digital
Идентификатор кодека : A_AC3
Продолжительность : 44 м. 14 с.
Вид битрейта : Постоянный
Битрейт : 192 Кбит/сек
Каналы : 2 канала
Channel layout : L R
Частота : 48,0 КГц
Частота кадров : 31,250 кадров/сек (1536 SPF)
Метод сжатия : С потерями
Размер потока : 60,8 Мбайт (3%)
Заголовок : Stereo
Язык : English
Service kind : Complete Main
Default : Нет
Forced : Нет
Носитель оригинала : DVD-Video
Текст
Идентификатор : 4
ID in the original source medium : 224 (0xE0)
Формат : UTF-8
Идентификатор кодека : S_TEXT/UTF8
Идентификатор кодека/Информация : UTF-8 Plain Text
Продолжительность : 42 м. 48 с.
Битрейт : 146 бит/сек
Count of elements : 835
Размер потока : 45,9 Кбайт (0%)
Язык : English
Default : Нет
Forced : Нет
Носитель оригинала : DVD-Video
Меню
00:00:00.000 : en:Chapter 01
00:05:12.378 : en:Chapter 02
00:18:49.394 : en:Chapter 03
00:33:54.432 : en:Chapter 04
00:40:22.286 : en:Chapter 05
Все раздачи


Display posts:    

Current time is: 23-Oct 08:08

All times are UTC ± 0


You cannot post new topics in this forum
You cannot reply to topics in this forum
You cannot edit your posts in this forum
You cannot delete your posts in this forum
You cannot vote in polls in this forum
You cannot attach files in this forum
You cannot download files in this forum

!ATTENTION!
The site does not give electronic versions of products, and is engaged only in a collecting and cataloguing of the references sent and published at a forum by our readers. If you are the legal owner of any submitted material and do not wish that the reference to it was in our catalogue, contact us and we shall immediately remove her. Files for an exchange on tracker are given by users of a site, and the administration does not bear the responsibility for their maintenance. The request to not fill in the files protected by copyrights, and also files of the illegal maintenance!