Ивановский Торрент трекер
Яндекс.Погода
 

[Quote]
HUNTER

Back 2 Bass / 2 Singles
Жанр: Hardcore, Happy Hardcore
Носитель: CDM
Страна-производитель диска (релиза): Netherlands
Год издания: 1996
Издатель (лейбл): Mokum Records
Номер по каталогу: DB 1742 3, DB 1756 3
Страна исполнителя (группы): Netherlands
Аудиокодек: FLAC (*.flac)
Тип рипа: image+.cue
Продолжительность: 00:52:43
Источник: собственный рип
Наличие сканов в содержимом раздачи: да

The Beating Of My Heart (Live To Tell) (CDM)(1996)

Номер по каталогу: DB 1742 3
Продолжительность: 00:28:44
Треклист:
01. The Beating Of My Heart (Live To Tell) (Radio Mix) 3:29
02. The Beating Of My Heart (Live To Tell) (Spoetnik Mix) Remix – Spoetnik 3:59
03. The Beating Of My Heart (Live To Tell) (Extended Mix) 5:20
04. The Beating Of My Heart (Live To Tell) (East Terminal String Mix) 5:34
05. The Beating Of My Heart (Live To Tell) (Chosen Few Mix) Remix – Chosen Few 4:58
06. The Beating Of My Heart (Live To Tell) (Omar Santana Mix) Remix – Omar Santana 4:41
07. The Beating Of My Heart (Live To Tell) (Hakkapella) 0:26

Лог создания рипа

Exact Audio Copy V1.5 from 20. February 2020
Отчёт EAC об извлечении, выполненном 9. августа 2020, 17:41
Back 2 Bass / The Beating Of My Heart (Live To Tell)
Дисковод: ASUS DRW-24D5MT Adapter: 1 ID: 0
Режим чтения : Достоверность
Использование точного потока : Да
Отключение кэша аудио : Да
Использование указателей C2 : Нет
Коррекция смещения при чтении : 6
Способность читать области Lead-in и Lead-out : Нет
Заполнение пропущенных сэмплов тишиной : Да
Удаление блоков с тишиной в начале и конце : Нет
При вычислениях CRC использовались нулевые сэмплы : Да
Интерфейс : Встроенный Win32-интерфейс для Win NT/2000
Выходной формат : Пользовательский кодировщик
Выбранный битрейт : 896 kBit/s
Качество : Высокий
Добавление ID3-тега : Нет
Утилита сжатия : C:\Program Files (x86)\Exact Audio Copy\Flac\flac.exe
Дополнительные параметры : -V -8 -T "Date=%year%" -T "Genre=%genre%" %source%
TOC извлечённого CD
Трек | Старт | Длительность | Начальный сектор | Конечный сектор
---------------------------------------------------------------------
1 | 0:00.32 | 3:31.48 | 32 | 15904
2 | 3:32.05 | 4:00.17 | 15905 | 33921
3 | 7:32.22 | 5:23.08 | 33922 | 58154
4 | 12:55.30 | 5:35.35 | 58155 | 83314
5 | 18:30.65 | 5:02.25 | 83315 | 105989
6 | 23:33.15 | 4:43.67 | 105990 | 127281
7 | 28:17.07 | 0:26.63 | 127282 | 129294
Характеристики диапазона извлечения и сообщения об ошибках
Выбранный диапазон
Имя файла D:\Program Files\Exact Audio Copy\Flac\Back 2 Bass\Back 2 Bass - The Beating Of My Heart (Live To Tell) (CDM)(1996)\Back 2 Bass - The Beating Of My Heart (Live To Tell).wav
Пиковый уровень 98.6 %
Скорость извлечения 1.5 X
Качество диапазона 100.0 %
CRC теста E6AE3828
CRC копии E6AE3828
Копирование... OK
Ошибок не произошло
AccurateRip: сводка
Трек 1 : извлечено точно (достоверность 3) [5DB58FD9] (AR v2)
Трек 2 : извлечено точно (достоверность 3) [FFFEAA8C] (AR v2)
Трек 3 : извлечено точно (достоверность 3) [930F6990] (AR v2)
Трек 4 : извлечено точно (достоверность 3) [34F8DB72] (AR v2)
Трек 5 : извлечено точно (достоверность 3) [9D4B7DDE] (AR v2)
Трек 6 : извлечено точно (достоверность 3) [FD2B8B78] (AR v2)
Трек 7 : извлечено точно (достоверность 2) [9EA7940E] (AR v2)
Все треки извлечены точно
Конец отчёта
---- CUETools DB Plugin V2.1.6
[CTDB TOCID: RpJXPfxxMreovxlO7.LqdnT2Bq4-] found
Submit result: already submitted
Track | CTDB Status
1 | (4/4) Accurately ripped
2 | (4/4) Accurately ripped
3 | (4/4) Accurately ripped
4 | (4/4) Accurately ripped
5 | (4/4) Accurately ripped
6 | (4/4) Accurately ripped
7 | (4/4) Accurately ripped
==== Контрольная сумма отчёта 345C71BE498A4D83B930C9B2725519F8FDD044623B3429B41E1FCFA430E9CAD3 ====

Содержание индексной карты (.CUE)

REM GENRE "Hardcore, Happy Hardcore"
REM DATE 1996
REM DISCID 5406BB07
REM COMMENT "ExactAudioCopy v1.5"
PERFORMER "Back 2 Bass"
TITLE "The Beating Of My Heart (Live To Tell)"
REM COMPOSER ""
FILE "Back 2 Bass - The Beating Of My Heart (Live To Tell).flac" WAVE
TRACK 01 AUDIO
TITLE "The Beating Of My Heart (Live To Tell) (Radio Mix)"
PERFORMER "Back 2 Bass"
REM COMPOSER ""
INDEX 00 00:00:00
INDEX 01 00:00:32
TRACK 02 AUDIO
TITLE "The Beating Of My Heart (Live To Tell) (Spoetnik Mix)"
PERFORMER "Back 2 Bass"
REM COMPOSER ""
INDEX 00 03:29:72
INDEX 01 03:32:05
TRACK 03 AUDIO
TITLE "The Beating Of My Heart (Live To Tell) (Extended Mix)"
PERFORMER "Back 2 Bass"
REM COMPOSER ""
INDEX 00 07:30:40
INDEX 01 07:32:22
TRACK 04 AUDIO
TITLE "The Beating Of My Heart (Live To Tell) (East Terminal String Mix)"
PERFORMER "Back 2 Bass"
REM COMPOSER ""
INDEX 00 12:53:20
INDEX 01 12:55:30
TRACK 05 AUDIO
TITLE "The Beating Of My Heart (Live To Tell) (Chosen Few Mix)"
PERFORMER "Back 2 Bass"
REM COMPOSER ""
INDEX 00 18:28:71
INDEX 01 18:30:65
TRACK 06 AUDIO
TITLE "The Beating Of My Heart (Live To Tell) (Omar Santana Mix)"
PERFORMER "Back 2 Bass"
REM COMPOSER ""
INDEX 00 23:31:12
INDEX 01 23:33:15
TRACK 07 AUDIO
TITLE "The Beating Of My Heart (Live To Tell) (Hakkapella)"
PERFORMER "Back 2 Bass"
REM COMPOSER ""
INDEX 00 28:15:55
INDEX 01 28:17:07

I Wanna Be With You (CDM)(1996)

Номер по каталогу: DB 1756 3
Продолжительность: 00:23:59
Треклист:
01. I Wanna Be With You (Radio Mix) 3:38
02. I Wanna Be With You (Spoetnik Mix) Remix – Spoetnik 3:55
03. I Wanna Be With You (Extended Mix) 6:08
04. I Wanna Be With You (Chosen Few Mix) Remix – Chosen Few 4:48
05. I Wanna Be With You (Hard Mix) 5:24

Лог создания рипа

Exact Audio Copy V1.5 from 20. February 2020
Отчёт EAC об извлечении, выполненном 8. августа 2020, 23:10
Back 2 Bass / I Wanna Be With You
Дисковод: ASUS DRW-24D5MT Adapter: 1 ID: 0
Режим чтения : Достоверность
Использование точного потока : Да
Отключение кэша аудио : Да
Использование указателей C2 : Нет
Коррекция смещения при чтении : 6
Способность читать области Lead-in и Lead-out : Нет
Заполнение пропущенных сэмплов тишиной : Да
Удаление блоков с тишиной в начале и конце : Нет
При вычислениях CRC использовались нулевые сэмплы : Да
Интерфейс : Встроенный Win32-интерфейс для Win NT/2000
Выходной формат : Пользовательский кодировщик
Выбранный битрейт : 896 kBit/s
Качество : Высокий
Добавление ID3-тега : Нет
Утилита сжатия : C:\Program Files (x86)\Exact Audio Copy\Flac\flac.exe
Дополнительные параметры : -V -8 -T "Date=%year%" -T "Genre=%genre%" %source%
TOC извлечённого CD
Трек | Старт | Длительность | Начальный сектор | Конечный сектор
---------------------------------------------------------------------
1 | 0:00.32 | 3:40.05 | 32 | 16536
2 | 3:40.37 | 3:57.40 | 16537 | 34351
3 | 7:38.02 | 6:08.10 | 34352 | 61961
4 | 13:46.12 | 4:48.45 | 61962 | 83606
5 | 18:34.57 | 5:24.00 | 83607 | 107906
Характеристики диапазона извлечения и сообщения об ошибках
Выбранный диапазон
Имя файла D:\Program Files\Exact Audio Copy\Flac\Back 2 Bass\Back 2 Bass - I Wanna Be With You (CDM)(1996)\Back 2 Bass - I Wanna Be With You.wav
Пиковый уровень 98.4 %
Скорость извлечения 1.5 X
Качество диапазона 100.0 %
CRC теста D6BA9675
CRC копии D6BA9675
Копирование... OK
Ошибок не произошло
AccurateRip: сводка
Трек 1 точность не определена (достоверность 5) [4E09057D], AccurateRip вернул [797A0DDE] (AR v2)
Трек 2 точность не определена (достоверность 5) [25D3E5A9], AccurateRip вернул [1146FB8E] (AR v2)
Трек 3 точность не определена (достоверность 5) [F43137F7], AccurateRip вернул [7B3AF253] (AR v2)
Трек 4 точность не определена (достоверность 5) [E79E4B08], AccurateRip вернул [7B6C4099] (AR v2)
Трек 5 точность не определена (достоверность 5) [121AE1EE], AccurateRip вернул [44ED1811] (AR v2)
Ни один трек не прошёл проверки на точность
В вашей базе может быть иной вариант штамповки диска
Конец отчёта
---- CUETools DB Plugin V2.1.6
[CTDB TOCID: emXidxtjpaywKQrjU1WJF1G_Oc4-] found
Submit result: emXidxtjpaywKQrjU1WJF1G_Oc4- has been confirmed
Track | CTDB Status
1 | (5/5) Accurately ripped
2 | (5/5) Accurately ripped
3 | (5/5) Accurately ripped
4 | (5/5) Accurately ripped
5 | (5/5) Accurately ripped
==== Контрольная сумма отчёта 97366C8B8FB560B2487931D3CA1CBE57D15E0B0B11E447A9F110B2AA71D7FEF5 ====

Содержание индексной карты (.CUE)

REM GENRE "Happy Hardcore, Hardcore"
REM DATE 1996
REM DISCID 2D059E05
REM COMMENT "ExactAudioCopy v1.5"
PERFORMER "Back 2 Bass"
TITLE "I Wanna Be With You"
REM COMPOSER ""
FILE "Back 2 Bass - I Wanna Be With You.flac" WAVE
TRACK 01 AUDIO
TITLE "I Wanna Be With You (radio mix)"
PERFORMER "Back 2 Bass"
REM COMPOSER ""
INDEX 00 00:00:00
INDEX 01 00:00:32
TRACK 02 AUDIO
TITLE "I Wanna Be With You (Spoetnik mix)"
PERFORMER "Back 2 Bass"
REM COMPOSER ""
INDEX 00 03:39:17
INDEX 01 03:40:37
TRACK 03 AUDIO
TITLE "I Wanna Be With You (extended mix)"
PERFORMER "Back 2 Bass"
REM COMPOSER ""
INDEX 00 07:36:35
INDEX 01 07:38:02
TRACK 04 AUDIO
TITLE "I Wanna Be With You (Chosen Few mix)"
PERFORMER "Back 2 Bass"
REM COMPOSER ""
INDEX 00 13:44:42
INDEX 01 13:46:12
TRACK 05 AUDIO
TITLE "I Wanna Be With You (Hard mix)"
PERFORMER "Back 2 Bass"
REM COMPOSER ""
INDEX 00 18:33:05
INDEX 01 18:34:57


Display posts:    

Current time is: 22-Jan 07:33

All times are UTC ± 0


You cannot post new topics in this forum
You cannot reply to topics in this forum
You cannot edit your posts in this forum
You cannot delete your posts in this forum
You cannot vote in polls in this forum
You cannot attach files in this forum
You cannot download files in this forum

!ATTENTION!
The site does not give electronic versions of products, and is engaged only in a collecting and cataloguing of the references sent and published at a forum by our readers. If you are the legal owner of any submitted material and do not wish that the reference to it was in our catalogue, contact us and we shall immediately remove her. Files for an exchange on tracker are given by users of a site, and the administration does not bear the responsibility for their maintenance. The request to not fill in the files protected by copyrights, and also files of the illegal maintenance!