Ивановский Торрент трекер
Яндекс.Погода
 

[Quote]
HUNTER

[box]7 дней на раздаче![/box]Гриззи и лемминги
Grizzy and the Lemmings
Год выпуска: 2017
Страна: Франция
Жанр: мультсериал, комедия, семейный
Продолжительность: 78 х 00:07:00
Перевод: не требуется
русские субтитры: нет-Режиссёр: Виктор-Эммануэль Мулен / Victor-Emmanuel Moulin
Роли озвучивали: Пьер-Ален Де Гарригес, Жослен Шарьер-Описание: В огромном природном заповеднике в Канаде, потерянном в глуши, есть небольшой оазис человеческой цивилизации: дом лесничего. В глазах животных в радиусе 60 миль вокруг - это Эль-Дорадо. В доме есть все блага цивилизации, не чуждые современным животным. Кондиционеры, холодильник, посуда, удобный диван и даже домашний кинотеатр! Чувствуя себя на вершине пищевой цепи - хозяином дома на время отсутствия лесничего объявил себя медведь. И уверен, что только ему позволено хозяйничать на кухне любимого жилища и спать на мягкой постели.
Но вот только его право оспаривают самые мелкие и безобидные, но смертельно надоедливые и упертые животные - лемминги. И вред для нервного здоровья медведя куда больше, чем все лемминги округи вместе взятые. Ведь сосуществовать с этими наглецами, по мнению медведя, невозможно. Но другого выбора нет и огромный медведь начинает борьбу за право владения домом со зверьками размером меньше кота.- релиз: -Качество: WEB-DL 1080p
Формат: MKV
Видео кодек: AVC
Аудио кодек: E-AC3
Видео: 1920x1080, 25 fps, ~6190 kbps avg, 0.119 bit/pixel
Аудио: 48 kHz, E-AC3, 2 ch, ~128 kbps
субтитры: английские

список серий

01. Polar Bear
02. Bear Spread
03. Cellular Bear
04. Jurassic Bear
05. Extreme Fitness
06. Domestic Robots
07. Mass Control
08. Bear Under Control
09. Popcorn Party
10. Dancing with the Bears
11. Role Change
12. Lemming Tonic
13. Bear Itch
14. Thirst Quencher
15. Spider Lemmings
16. Random Bear
17. Lemming Interference
18. High Voltage Bear Attack
19. Bear Scents
20. Bear Luck
21. Magnetic Bear
22. Bear Charm
23. Bears Best Friend
24. Super Grizzy Bros
25. Fake Brother
26. Mind in a Whirl
27. A Sizeable Problem
28. Treasure Bear
29. In the Service of His Majesty
30. Bear Art
31. Happy Birthday Lemming
32. Flower Power
33. Teleportations the Way to Go
34. Bear Countdown
35. Lemming Airlines
36. Relax Bear
37. Bear Gliding
38. The Sound of a Lemming
39. Bear in the Wind
40. Construction Bear
41. Kung Fu Lemmings
42. A Midsummer Bears Dream
43. Manufacturing Secret
44. Bling Bling Bear
45. Intellectual Bear
46. Voodoo Blanket
47. Bear Prints
48. Inspector Grizzy
49. No Entrance
50. Lemmings Indigestion
51. Sonata in Bear Major
52. Bear Fractions
53. The Bear That Laid Golden Eggs
54. Crash training course
55. As Far as Bear Can Remember
56. Chemical Lemmings
57. Remote Control
58. The Bear and the Butterfly
59. Get Off My Tennis Shoes
60. Babysitting
61. Bear Under Lock and Key
62. Lemming Blues
63. Snow Lemmings
64. Augmented Bear
65. Lemmings Under Pressure
66. Lemmings in Space
67. Sniffer Raccoon
68. Transformational Bear
69. Shaken-up Bear
70. Pinata Party
71. Bear Game
72. Ranger Lemming
73. Halloween Bear
74. Clean Bear
75. Wandering Spirits
76. Mirror Mirror on the Wall
77. Grizzy the Wizard
78. Moonwalk Bear

MediaInfo

Общее
Уникальный идентификатор : 241415600521935540287215627145218142017 (0xB59EF4129867AAF9C4A9D4B07444AF41)
Полное имя : D:\Grizzy.And.The.Lemmings.S01.1080p.NF.WEB-DL.DDP2.0.x264-AJP69\Grizzy.and.the.Lemmings.S01E01.Polar.Bear.1080p.NF.WEB-DL.DDP2.0.x264-AJP69.mkv
Формат : Matroska
Версия формата : Version 4 / Version 2
Размер файла : 317 Мбайт
Продолжительность : 7 м. 2 с.
Режим общего битрейта : Переменный
Общий поток : 6302 Кбит/сек
Дата кодирования : UTC 2019-07-20 07:21:09
Программа кодирования : mkvmerge v35.0.0 ('All The Love In The World') 64-bit
Библиотека кодирования : libebml v1.3.9 + libmatroska v1.5.2
Видео
Идентификатор : 1
Формат : AVC
Формат/Информация : Advanced Video Codec
Профиль формата : [email protected]
Настройки формата : CABAC / 3 Ref Frames
Параметр CABAC формата : Да
Параметр RefFrames формата : 3 кадра
Идентификатор кодека : V_MPEG4/ISO/AVC
Продолжительность : 7 м. 2 с.
Вид битрейта : Переменный
Битрейт : 6190 Кбит/сек
Максимальный битрейт : 9285 Кбит/сек
Ширина : 1920 пикселей
Высота : 1080 пикселей
Соотношение сторон : 16:9
Режим частоты кадров : Постоянный
Частота кадров : 25,000 кадров/сек
Цветовое пространство : YUV
Субдискретизация насыщенности : 4:2:0
Битовая глубина : 8 бит
Тип развёртки : Прогрессивная
Бит/(Пиксели*Кадры) : 0.119
Размер потока : 311 Мбайт (98%)
Библиотека кодирования : x264 core 148 r2715 7e75228
Настройки программы : cabac=1 / ref=3 / deblock=1:0:0 / analyse=0x1:0x111 / me=umh / subme=10 / psy=1 / psy_rd=1.00:0.00 / mixed_ref=1 / me_range=24 / chroma_me=1 / trellis=2 / 8x8dct=0 / cqm=0 / deadzone=21,11 / fast_pskip=1 / chroma_qp_offset=-2 / threads=3 / lookahead_threads=1 / sliced_threads=0 / nr=0 / decimate=1 / interlaced=0 / bluray_compat=0 / stitchable=1 / constrained_intra=0 / bframes=2 / b_pyramid=0 / b_adapt=2 / b_bias=0 / direct=3 / weightb=1 / open_gop=0 / weightp=2 / keyint=250 / keyint_min=25 / scenecut=0 / intra_refresh=0 / rc_lookahead=50 / rc=2pass / mbtree=1 / bitrate=6190 / ratetol=1.0 / qcomp=0.50 / qpmin=6 / qpmax=51 / qpstep=4 / cplxblur=20.0 / qblur=0.5 / vbv_maxrate=9285 / vbv_bufsize=12380 / nal_hrd=vbr / filler=0 / ip_ratio=1.40 / aq=1:1.00
Default : Да
Forced : Нет
Аудио
Идентификатор : 2
Формат : E-AC-3
Формат/Информация : Enhanced Audio Coding 3
Идентификатор кодека : A_EAC3
Продолжительность : 7 м. 2 с.
Вид битрейта : Постоянный
Битрейт : 128 Кбит/сек
Каналы : 2 канала
Расположение каналов : Front: L R
Частота : 48,0 КГц
Частота кадров : 187,500 кадров/сек (256 SPF)
Метод сжатия : С потерями
Размер потока : 6,44 Мбайт (2%)
Заголовок : No
Язык : zxx
ServiceKind/String : Complete Main
Default : Да
Forced : Нет
Текст
Идентификатор : 3
Формат : UTF-8
Идентификатор кодека : S_TEXT/UTF8
Идентификатор кодека/Информация : UTF-8 Plain Text
Продолжительность : 6 м. 57 с.
Битрейт : 26 бит/сек
ElementCount : 112
Размер потока : 1,36 Кбайт (0%)
Заголовок : SDH
Язык : English
Default : Нет
Forced : Нет
Меню
00:00:00.000 : en:Intro start
00:00:24.960 : en:Intro end
[box]Ссылка на предыдущие и альтернативные раздачи[/box]

[Quote]
SiriusSpb

Встаньте на раздачу. Спасибо

[Quote]
SiriusSpb

Будут ли оставшиеся 100 серий в формате mkv тоже? Спасибо за Вашу работу

[Quote]
SiriusSpb

Имею ввиду 2 сезон и еще 78 серий :)


Display posts:    

Current time is: 26-Sep 04:54

All times are UTC ± 0


You cannot post new topics in this forum
You cannot reply to topics in this forum
You cannot edit your posts in this forum
You cannot delete your posts in this forum
You cannot vote in polls in this forum
You cannot attach files in this forum
You cannot download files in this forum

!ATTENTION!
The site does not give electronic versions of products, and is engaged only in a collecting and cataloguing of the references sent and published at a forum by our readers. If you are the legal owner of any submitted material and do not wish that the reference to it was in our catalogue, contact us and we shall immediately remove her. Files for an exchange on tracker are given by users of a site, and the administration does not bear the responsibility for their maintenance. The request to not fill in the files protected by copyrights, and also files of the illegal maintenance!