Ивановский Торрент трекер
Яндекс.Погода
 

[Quote]
sergey82

2019- --Жанр: Celtic punk, Folk Punk
Продолжительность: 01:03:45
Год выпуска: 2019-Описание: Their forefathers were Irish immigrants who landed with the immigration wave in Boston. Growing up on the American east coast in the environment, the texts the volume of her native country, origin and culture act. The subjects, with her identity deal unite the drop kick of Murphy capably with punk rock. Five musicians are valid as a fun guarantor for the whole family, although it is able to do to go on her concerts also sometimes a little more wildly. The Irish folk punk's mix arrives safely not only in America. Murphy have meanwhile a worldwide fan base.-Треклист:
1 Foggy Dew (Charles O’Neill song) (Sinéad O'Connor & The Chieftains version)
2 Cadence to Arms
3 The Boys Are Back
4 Prisoner's Song
5 Johnny, I Hardly Knew Ya
6 Blood
7 Going Out in Style
8 Caught in a Jar
9 The Walking Dead
10 Don't Tear Us Apart
11 The State of Massachusetts
12 First Class Loser
13 Famous for Nothing
14 Paying My Way
15 The Irish Rover
16 Out of Our Heads
17 You'll Never Walk Alone (Rodgers & Hammerstein cover)
18 Rose Tattoo
19 Until the Next Time
20 I'm Shipping Up to Boston-Качество: Web-DL
Разрешение видео/развертка: 1080p
Контейнер: MKV
Видео кодек: MPEG-4 AVC
Аудио кодек: AAC
Видео: MPEG-4 AVC / 1920*1080 / (16:9) / 9000 kbps / 25.0 fps
Аудио: AAC / 128 kbps / 48.0 khz / 2 ch

MI

Общее
Уникальный идентификатор : 204209012692433823741783626248613296406 (0x99A139A9B5A069DFADAAFA8383187916)
Полное имя : D:\Video\Dropkick Murphys - Rock Am Ring 2019.mkv
Формат : Matroska
Версия формата : Version 4
Размер файла : 4,05 Гбайт
Продолжительность : 1 ч. 3 м.
Общий поток : 9087 Кбит/сек
Дата кодирования : UTC 2020-04-29 15:13:23
Программа кодирования : mkvmerge v7.1.0 ('Good Love') 64bit built on Jul 27 2014 13:06:55
Библиотека кодирования : libebml v1.3.0 + libmatroska v1.4.1
Видео
Идентификатор : 1
Формат : AVC
Формат/Информация : Advanced Video Codec
Профиль формата : [email protected]
Настройки формата : CABAC / 4 Ref Frames
Параметр CABAC формата : Да
Параметр RefFrames формата : 4 кадра
Идентификатор кодека : V_MPEG4/ISO/AVC
Продолжительность : 1 ч. 3 м.
Вид битрейта : Постоянный
Битрейт : 9000 Кбит/сек / 9000 Кбит/сек
Ширина : 1920 пикселей
Высота : 1080 пикселей
Соотношение сторон : 16:9
Режим частоты кадров : Постоянный
Частота кадров : 25,000 кадров/сек
Цветовое пространство : YUV
Субдискретизация насыщенности : 4:2:0
Битовая глубина : 8 бит
Тип развёртки : Прогрессивная
Бит/(Пиксели*Кадры) : 0.174
Размер потока : 3,99 Гбайт (99%)
Библиотека кодирования : x264 core 148
Настройки программы : cabac=1 / ref=4 / deblock=1:-1:-1 / analyse=0x1:0x111 / me=hex / subme=7 / psy=1 / psy_rd=1.00:0.15 / mixed_ref=1 / me_range=16 / chroma_me=1 / trellis=1 / 8x8dct=0 / cqm=0 / deadzone=21,11 / fast_pskip=1 / chroma_qp_offset=-3 / threads=8 / lookahead_threads=1 / sliced_threads=0 / nr=0 / decimate=1 / interlaced=0 / paff=0 / bluray_compat=0 / constrained_intra=0 / bframes=3 / b_pyramid=2 / b_adapt=1 / b_bias=0 / direct=1 / weightb=1 / open_gop=0 / weightp=2 / keyint=50 / keyint_min=5 / scenecut=0 / intra_refresh=0 / rc_lookahead=40 / rc=cbr / mbtree=1 / bitrate=9000 / ratetol=1.0 / qcomp=0.60 / qpmin=0 / qpmax=69 / qpstep=4 / vbv_maxrate=9000 / vbv_bufsize=18000 / nal_hrd=cbr / filler=1 / ip_ratio=1.40 / aq=1:1.00
Default : Да
Forced : Нет
Цветовой диапазон : Limited
Основные цвета : BT.709
Характеристики трансфера : BT.709
Коэффициенты матрицы : BT.709
Аудио
Идентификатор : 2
Формат : AAC LC
Формат/Информация : Advanced Audio Codec Low Complexity
Идентификатор кодека : A_AAC-2
Продолжительность : 1 ч. 3 м.
Битрейт : 128 Кбит/сек
Каналы : 2 канала
ChannelLayout : L R
Частота : 48,0 КГц
Частота кадров : 46,875 кадров/сек (1024 SPF)
Метод сжатия : С потерями
Размер потока : 58,4 Мбайт (1%)
Default : Да
Forced : Нет

Скриншоты



Display posts:    

Current time is: 23-Sep 05:37

All times are UTC ± 0


You cannot post new topics in this forum
You cannot reply to topics in this forum
You cannot edit your posts in this forum
You cannot delete your posts in this forum
You cannot vote in polls in this forum
You cannot attach files in this forum
You cannot download files in this forum

!ATTENTION!
The site does not give electronic versions of products, and is engaged only in a collecting and cataloguing of the references sent and published at a forum by our readers. If you are the legal owner of any submitted material and do not wish that the reference to it was in our catalogue, contact us and we shall immediately remove her. Files for an exchange on tracker are given by users of a site, and the administration does not bear the responsibility for their maintenance. The request to not fill in the files protected by copyrights, and also files of the illegal maintenance!