Ивановский Торрент трекер
Яндекс.Погода
 

[Quote]
HUNTER

Белка и Стрелка. Тайны космоса
Год выпуска: 2018
Страна: Россия
Жанр: мультфильм, мультсериал
Продолжительность: 10 х 00:06:00
Перевод: не требуется
субтитры: отсутствуют-Режиссёр: Андрей Рубецкой
Роли озвучивали: Ольга Шорохова, Диомид Виноградов-Описание: Мировая сенсация! На поверхности Луны была построена высокотехнологичная станция – совместный проект России и США. Лучшие космонавты обеих стран поселяются на спутнике Земли, чтобы исследовать его тайны и выполнять задания из научного центра. Разношерстным экипажем руководит строгий и решительный пес Казбек, которому не обойтись без помощи своих опытных «бойцов» – знаменитых собак Белки и Стрелки, крысы Вени, кота Вачовски, шимпанзе Бонни и других животных-первопроходцев. Вместе со зрителями героям предстоит узнать много нового и любопытного о нашей бескрайней Вселенной и относительно маленькой Луны. Исследователи столкнутся с феноменом лунотрясения, займутся добычей полезных ископаемых на Луне, изучат теории ее возникновения и не раз проверят свою дружбу, переживая самые необычные приключения.- релиз: -Качество: WEBRip 1080p
Формат: MP4
Видео кодек: AVC
Аудио кодек: AAC
Видео: 1920x1080 , 25 fps, ~5120 kbps avg, 0.099 bit/pixel
Аудио: 48 kHz, AAC, 2ch, ~192 kbps avg

Список серий

01. Лунотряска
02. Грунтоспорт
03. Пропавшие вещи
04. Невесо и Гравита
05. Лунные тайны
06. Метеоритотир
07. SOS
08. Контакт
09. Спасайтесь! Пришельцы!
10. Лунные сутки

MediaInfo

Общее
Уникальный идентификатор : 10972474297254610456401068968427682113 (0x84138C01B396BA8DC14E25A1AF07941)
Полное имя : D:\Mult\Белка и Стрелка. Тайны космоса.2018.WEBRip 1080p\01. Лунотряска.mkv
Формат : Matroska
Версия формата : Version 4 / Version 2
Размер файла : 235 Мбайт
Продолжительность : 6 м. 13 с.
Общий поток : 5266 Кбит/сек
Дата кодирования : UTC 2019-10-15 12:13:37
Программа кодирования : mkvmerge v37.0.0 ('Leave It') 64-bit
Библиотека кодирования : libebml v1.3.9 + libmatroska v1.5.2
Видео
Идентификатор : 1
Формат : AVC
Формат/Информация : Advanced Video Codec
Профиль формата : [email protected]
Настройки формата : CABAC / 4 Ref Frames
Параметр CABAC формата : Да
Параметр RefFrames формата : 4 кадра
Идентификатор кодека : V_MPEG4/ISO/AVC
Продолжительность : 6 м. 13 с.
Битрейт : 5120 Кбит/сек
Ширина : 1920 пикселей
Высота : 1080 пикселей
Соотношение сторон : 16:9
Режим частоты кадров : Постоянный
Частота кадров : 25,000 кадров/сек
Цветовое пространство : YUV
Субдискретизация насыщенности : 4:2:0
Битовая глубина : 8 бит
Тип развёртки : Прогрессивная
Бит/(Пиксели*Кадры) : 0.099
Размер потока : 226 Мбайт (96%)
Библиотека кодирования : x264 core 142
Настройки программы : cabac=1 / ref=3 / deblock=1:0:0 / analyse=0x3:0x113 / me=hex / subme=7 / psy=1 / psy_rd=1.00:0.00 / mixed_ref=1 / me_range=16 / chroma_me=1 / trellis=1 / 8x8dct=1 / cqm=0 / deadzone=21,11 / fast_pskip=1 / chroma_qp_offset=-2 / threads=36 / lookahead_threads=6 / sliced_threads=0 / nr=0 / decimate=1 / interlaced=0 / bluray_compat=0 / constrained_intra=0 / bframes=6 / b_pyramid=2 / b_adapt=1 / b_bias=0 / direct=1 / weightb=1 / open_gop=0 / weightp=2 / keyint=50 / keyint_min=26 / scenecut=0 / intra_refresh=0 / rc_lookahead=40 / rc=2pass / mbtree=1 / bitrate=5120 / ratetol=1.0 / qcomp=0.60 / qpmin=0 / qpmax=69 / qpstep=4 / cplxblur=20.0 / qblur=0.5 / vbv_maxrate=7680 / vbv_bufsize=20480 / nal_hrd=none / filler=0 / ip_ratio=1.40 / aq=1:1.00
Язык : Russian
Default : Да
Forced : Нет
Аудио
Идентификатор : 2
Формат : AAC
Формат/Информация : Advanced Audio Codec
Профиль формата : LC
Идентификатор кодека : A_AAC-2
Продолжительность : 6 м. 13 с.
Битрейт : 192 Кбит/сек
Каналы : 2 канала
Расположение каналов : Front: L R
Частота : 48,0 КГц
Частота кадров : 46,875 кадров/сек (1024 SPF)
Метод сжатия : С потерями
Размер потока : 8,56 Мбайт (4%)
Язык : Russian
Default : Да
Forced : Нет
Текст
Идентификатор : 3
Формат : UTF-8
Идентификатор кодека : S_TEXT/UTF8
Идентификатор кодека/Информация : UTF-8 Plain Text
Продолжительность : 5 м. 31 с.
Битрейт : 120 бит/сек
ElementCount : 86
Размер потока : 4,89 Кбайт (0%)
Заголовок : Rus Sub
Язык : Russian
Default : Нет
Forced : Нет
Ссылка на предыдущие и альтернативные раздачи


Display posts:    

Current time is: 23-Oct 08:18

All times are UTC ± 0


You cannot post new topics in this forum
You cannot reply to topics in this forum
You cannot edit your posts in this forum
You cannot delete your posts in this forum
You cannot vote in polls in this forum
You cannot attach files in this forum
You cannot download files in this forum

!ATTENTION!
The site does not give electronic versions of products, and is engaged only in a collecting and cataloguing of the references sent and published at a forum by our readers. If you are the legal owner of any submitted material and do not wish that the reference to it was in our catalogue, contact us and we shall immediately remove her. Files for an exchange on tracker are given by users of a site, and the administration does not bear the responsibility for their maintenance. The request to not fill in the files protected by copyrights, and also files of the illegal maintenance!