Ивановский Торрент трекер
Яндекс.Погода
 

[Quote]
HUNTER

Авто - SOS / Auto Car SOS
Дата/Год выпуска: 2017-2020
Страна: UK
Жанр: Реалити шоу
Продолжительность: 00:44:00 - 1 серия
Перевод: Студийный (одноголосый закадровый)
Телеканал: National Geographic
Описание: Всеми любимые автофанаты Фазз Тауншенд и Тим Шоу продолжают свою миссию по поиску классических автомобилей и их достопочтенных владельцев. Используя все свои знания в области ремонта и восстановления автомобилей, они преследуют цель "незаметно для владельца" взять его классический автомобиль и, удалив с него всю многолетнюю ржавчину и грязь и заменив неисправные детали, вернуть его туда, где он заслуживает быть - на дорогу. В этой серии парни столкнутся с самыми серьезными вызовами в своей карьере. Практически неустранимая ржавчина, сложности с поиском запчастей и безнадежно вышедшие из строя моторы заставляют их проявить максимум своих способностей. Самые разные автомобили - настоящие легенды прошлого, выпущенные 80 лет назад, от винтажных туреров, до японских суперкаров 1990-х годов, от культового немецкого спортивного купе, до очень редкого британского чемпиона по ралли, становятся после восстановления руками Фазза и Тима настоящим сюрпризом для их владельцев, который они никогда не забудут, садясь со слезами радости на глазах за руль этих очень красивых машин.
Доп. информация:
1 СЕЗОН
2 3 4 5 СЕЗОН
качество: HDTVRip
формат: AVI
Видео: Xvid 720x400 25fps ~1500kbps
Аудио: MP3 48000Hz stereo 192kbps

MediaInfo

General
Complete name : D:\Auto SOS 678\6 Season\02 Lancia Delta.avi
Format : AVI
Format/Info : Audio Video Interleave
File size : 540 MiB
Duration : 43 min 59 s
Overall bit rate : 1 717 kb/s
Writing application : VirtualDubMod 1.5.10.3 | www.virtualdub-fr.org || (build 2550/release)
Writing library : VirtualDubMod build 2550/release
Video
ID : 0
Format : MPEG-4 Visual
Format profile : Advanced [email protected]
Format settings : BVOP1
Format settings, BVOP : 1
Format settings, QPel : No
Format settings, GMC : No warppoints
Format settings, Matrix : Default (H.263)
Codec ID : XVID
Codec ID/Hint : XviD
Duration : 43 min 59 s
Bit rate : 1 515 kb/s
Width : 720 pixels
Height : 400 pixels
Display aspect ratio : 16:9
Frame rate : 25.000 FPS
Color space : YUV
Chroma subsampling : 4:2:0
Bit depth : 8 bits
Scan type : Progressive
Compression mode : Lossy
Bits/(Pixel*Frame) : 0.210
Stream size : 477 MiB (88%)
Writing library : XviD 1.2.1 (UTC 2008-12-04)
Audio
ID : 1
Format : MPEG Audio
Format version : Version 1
Format profile : Layer 3
Codec ID : 55
Codec ID/Hint : MP3
Duration : 43 min 59 s
Bit rate mode : Constant
Bit rate : 192 kb/s
Channel(s) : 2 channels
Sampling rate : 48.0 kHz
Compression mode : Lossy
Stream size : 60.4 MiB (11%)
Alignment : Aligned on interleaves
Interleave, duration : 40 ms (1.00 video frame)
Interleave, preload duration : 504 ms

Скриншоты

Список серий

6 Season
01 MG MGA (отсутствует)
02 Lancia Delta.
03 VW Karmann Ghia.
04 Triumph GT6.
05 Citroën DS (отсутствует)
06 Toyota FJ40.
07 Peugeot 205 GTI.
08 Subaru Impreza.
09 Messerschmitt KR200.
10 Ford Capri.
7 Season
01 Triumph TR4.
02 Toyota Celica.
03 Lotus Elise.
04 Ford Model A.
05 Peugeot 504.
06 Talbot Sunbeam Lotus.
07 Lamborghini Espadа.
08 Volkswagen Transporter T4.
09 Ford Escort Mexico.
10 Citroen 2CV.
8 Season
01 Porsche 356 (отсутствует)
02 Austin-Healey 3000.
03 Lotus Esprit (отсутствует)
04 Hillman Imp.
05 Lancia Fulvia (отсутствует)
06 Ferguson Tractor.
07 Mitsubishi Evo 4.
08 Austin 7 Chummy.
09 Cannon Goldfinger (отсутствует)
10 MG Metro 6R4 (отсутствует)
7 Day Challenge Special 1.
7 Day Challenge Special 2.


Display posts:    

Current time is: 22-Sep 10:53

All times are UTC ± 0


You cannot post new topics in this forum
You cannot reply to topics in this forum
You cannot edit your posts in this forum
You cannot delete your posts in this forum
You cannot vote in polls in this forum
You cannot attach files in this forum
You cannot download files in this forum

!ATTENTION!
The site does not give electronic versions of products, and is engaged only in a collecting and cataloguing of the references sent and published at a forum by our readers. If you are the legal owner of any submitted material and do not wish that the reference to it was in our catalogue, contact us and we shall immediately remove her. Files for an exchange on tracker are given by users of a site, and the administration does not bear the responsibility for their maintenance. The request to not fill in the files protected by copyrights, and also files of the illegal maintenance!